<?xml version="1.0" standalone="no"?>
<!DOCTYPE svg PUBLIC "-//W3C//DTD SVG 1.1//EN" "http://www.w3.org/Graphics/SVG/1.1/DTD/svg11.dtd">
<svg xmlns="http://www.w3.org/2000/svg">
<metadata>Copyright (C) 2014 by original authors @ fontello.com</metadata>
<defs>
<font id="fontello" horiz-adv-x="1000" >
<font-face font-family="fontello" font-weight="400" font-stretch="normal" units-per-em="1000" ascent="850" descent="-150" />
<missing-glyph horiz-adv-x="1000" />
<glyph glyph-name="angle-double-up" unicode="&#xe801;" d="m600 118q0-7-6-13l-28-28q-5-5-12-5t-13 5l-220 219l-219-219q-5-5-13-5t-13 5l-27 28q-6 6-6 13t6 13l260 260q5 5 12 5t13-5l260-260q6-6 6-13z m0 214q0-7-6-13l-28-28q-5-5-12-5t-13 5l-220 220l-219-220q-5-5-13-5t-13 5l-27 28q-6 6-6 13t6 13l260 260q5 6 12 6t13-6l260-260q6-6 6-13z" horiz-adv-x="642.9" />
<glyph glyph-name="wallet" unicode="&#xe843;" d="m0 22l0 625q0 70 51 121t121 51l640 0q40 0 67-28t27-66l0-281q94-71 94-188t-94-187l0-47q0-70-51-121t-121-51l-562 0q-70 0-121 51t-51 121z m63 0q0-45 32-77t77-33l562 0q45 0 78 33t32 77l0 47l-281 0q-65 0-111 46t-46 110t46 110t111 46l281 0l0 63q0 13-9 22t-23 9l-640 0q-63 0-109 39l0-492z m0 625q0-45 31-76l0 123q0 13 9 22t22 9l656 0q14 0 23-9t9-22l0-156q15 0 31-6l0 193q0 14-9 22t-23 9l-640 0q-45 0-77-32t-32-77z m62-98q23-11 47-11l609 0l0 31l-656 0l0-20z m0 51l656 0l0 31l-656 0l0-31z m0 62l656 0l0 32l-656 0l0-32z m344-437q0-39 27-66t67-28l320 0q54 51 54 125q0 59-35 104l0-2q-4-8-7-14q-20-25-51-25l-281 0q-40 0-67-28t-27-66z m31 0q0 25 19 44t44 19t43-19t19-44t-19-44t-43-18t-44 18t-19 44z" horiz-adv-x="1000" />
<glyph glyph-name="down" unicode="&#xe803;" d="m427 125q4-10-3-19l-195-215q-6-5-13-5q-8 0-13 5l-198 215q-8 9-3 19q5 11 16 11h125v696q0 8 5 13t13 5h107q8 0 13-5t5-13v-696h125q11 0 16-11z" horiz-adv-x="428.6" />
<glyph glyph-name="left" unicode="&#xe804;" d="m964 352q0-8-5-14l-215-197q-9-8-19-4q-11 5-11 17v125h-696q-8 0-13 5t-5 12v108q0 7 5 12t13 5h696v125q0 12 11 17t19-3l215-196q5-5 5-12z" horiz-adv-x="1000" />
<glyph glyph-name="right" unicode="&#xe805;" d="m1000 404v-108q0-7-5-12t-13-5h-696v-125q0-12-11-17t-19 3l-215 196q-5 5-5 12q0 8 5 14l215 197q9 8 19 4q11-5 11-17v-125h696q8 0 13-5t5-12z" horiz-adv-x="1000" />
<glyph glyph-name="up" unicode="&#xe806;" d="m427 575q-5-11-16-11h-125v-696q0-8-5-13t-13-5h-107q-8 0-13 5t-5 13v696h-125q-12 0-16 11t3 19l195 215q5 5 13 5q7 0 13-5l198-215q7-9 3-19z" horiz-adv-x="428.6" />
<glyph glyph-name="down-big" unicode="&#xe807;" d="m899 386q0-30-21-50l-363-364q-22-21-51-21q-29 0-50 21l-363 364q-21 20-21 50q0 29 21 51l41 41q22 21 51 21q29 0 50-21l164-164v393q0 29 21 50t51 22h71q29 0 50-22t21-50v-393l164 164q21 21 51 21q29 0 50-21l42-42q21-21 21-50z" horiz-adv-x="928.6" />
<glyph glyph-name="left-big" unicode="&#xe808;" d="m857 350v-71q0-30-18-51t-47-21h-393l164-164q21-20 21-50t-21-50l-42-43q-21-20-51-20q-29 0-50 20l-364 364q-20 21-20 50q0 29 20 51l364 363q21 21 50 21q29 0 51-21l42-42q21-21 21-50t-21-51l-164-164h393q29 0 47-20t18-51z" horiz-adv-x="857.1" />
<glyph glyph-name="right-big" unicode="&#xe809;" d="m821 314q0-30-20-50l-363-364q-22-20-51-20q-29 0-50 20l-42 42q-22 21-22 51t22 51l163 163h-393q-29 0-47 21t-18 51v71q0 30 18 51t47 20h393l-163 164q-22 21-22 51t22 50l42 42q21 21 50 21q29 0 51-21l363-363q20-20 20-51z" horiz-adv-x="857.1" />
<glyph glyph-name="up-big" unicode="&#xe80a;" d="m899 308q0-28-21-50l-42-42q-21-21-50-21q-30 0-51 21l-164 164v-393q0-29-20-47t-51-19h-71q-30 0-51 19t-21 47v393l-164-164q-20-21-50-21t-50 21l-42 42q-21 21-21 50q0 30 21 51l363 363q20 21 50 21q30 0 51-21l363-363q21-22 21-51z" horiz-adv-x="928.6" />
<glyph glyph-name="right-hand" unicode="&#xe80b;" d="m143 100q0 15-11 25t-25 11t-25-11t-11-25t11-25t25-11t25 11t11 25z m786 321q0 29-22 50t-50 22h-321q0 11 8 27t19 31t18 38t8 47q0 37-25 54t-64 17q-13 0-50-77q-14-25-21-37q-22-35-62-81q-40-45-57-59q-38-32-78-32h-18v-357h18q40 0 93-18t108-35t100-18q106 0 106 93q0 14-3 31q17 9 27 30t9 41t-10 38q30 28 30 66q0 14-6 31t-14 27h185q29 0 50 21t22 50z m71 1q0-59-42-101t-101-42h-94q-2-35-21-67q2-12 2-24q0-56-34-99q1-78-47-123t-127-45q-74 0-179 39q-92 33-125 33h-161q-29 0-50 21t-21 50v357q0 30 21 51t50 21h161q6 0 12 2t13 8t13 10t13 13t12 12t10 12t8 9q36 42 56 72q7 12 18 35t21 40t23 35t30 28t39 10q70 0 115-38t46-105q0-38-13-72h209q58 0 101-42t42-100z" horiz-adv-x="1000" />
<glyph glyph-name="left-hand" unicode="&#xe80c;" d="m768 64h18v357h-18q-20 0-38 7t-35 21t-28 25t-27 31q-1 1-2 2t-2 3t-3 2q-40 46-62 81q-8 13-21 38q-1 2-6 13t-11 20t-11 20t-12 17t-10 6q-40 0-64-17t-25-54q0-24 8-47t19-38t18-31t8-27h-321q-28 0-50-22t-22-50q0-29 22-50t50-21h185q-9-9-14-26t-6-31q0-39 30-67q-10-18-10-38t9-41t27-30q-2-13-2-31q0-47 27-70t75-23q47 0 102 18t109 35t93 18z m161 36q0 15-11 25t-25 11t-25-11t-11-25t11-25t25-11t25 11t11 25z m71 321v-357q0-29-21-50t-50-21h-161q-33 0-125-33q-106-39-176-39q-80 0-129 44t-48 121l0 3q-34 42-34 99q0 12 2 24q-19 32-21 67h-94q-59 0-101 42t-42 101q0 57 42 100t101 42h209q-13 34-13 72q0 68 46 105t115 37q21 0 39-9t30-28t23-35t21-40t18-35q20-30 56-72q1-1 8-9t10-12t12-12t13-13t13-10t13-8t12-2h161q29 0 50-21t21-51z" horiz-adv-x="1000" />
<glyph glyph-name="up-hand" unicode="&#xe80d;" d="m714-43q0 15-10 25t-25 11t-26-11t-10-25t10-25t26-11t25 11t10 25z m72 426q0 106-93 106q-15 0-32-3q-9 17-29 27t-41 9t-39-10q-27 30-66 30q-14 0-31-6t-26-14v185q0 29-22 50t-50 22q-28 0-50-22t-21-50v-321q-11 0-27 8t-31 19t-38 18t-47 8q-37 0-55-25t-17-64q0-13 78-50q25-14 36-21q36-22 81-62q45-40 59-57q32-38 32-78v-18h357v18q0 40 18 93t36 108t18 100z m71 3q0-74-38-179q-33-92-33-125v-161q0-29-21-50t-51-21h-357q-29 0-50 21t-21 50v161q0 6-3 12t-8 13t-10 13t-12 13t-12 12t-12 10t-10 8q-41 36-72 56q-11 7-34 18t-40 21t-36 23t-27 30t-10 39q0 70 37 115t106 46q38 0 71-13v209q0 58 43 101t100 42q58 0 101-42t42-101v-94q35-2 66-21q12 2 24 2q57 0 100-34q77 1 122-47t45-127z" horiz-adv-x="857.1" />
<glyph glyph-name="down-hand" unicode="&#xe80e;" d="m786 314q0 47-18 102t-36 109t-18 93v18h-357v-18q0-20-7-38t-20-35t-26-28t-30-27q-5-4-8-7q-45-40-81-62q-12-8-38-21q-1-1-12-6t-20-11t-20-11t-17-12t-7-10q0-40 17-65t55-24q24 0 47 8t38 18t31 19t27 8v-321q0-28 21-50t50-22q29 0 50 22t22 50v184q25-19 57-19q39 0 66 30q18-11 39-11t41 10t29 27q14-2 32-2q47 0 70 27t23 75z m-72 429q0 14-10 25t-25 11t-26-11t-10-25t10-25t26-11t25 11t10 25z m143-427q0-79-43-128t-121-48l-3 0q-43-34-100-34q-12 0-24 2q-30-17-66-21v-94q0-59-42-101t-101-42q-58 0-100 42t-43 101v208q-30-12-71-12q-68 0-105 46t-38 115q0 21 10 39t27 30t36 23t40 21t34 18q31 20 72 56q2 1 10 8t12 10t12 12t12 13t10 13t8 13t3 12v160q0 30 21 51t50 21h357q30 0 51-21t21-51v-160q0-33 33-125q38-106 38-177z" horiz-adv-x="857.1" />
<glyph glyph-name="left-circled" unicode="&#xe80f;" d="m714 314v72q0 14-10 25t-25 10h-281l106 106q11 11 11 25t-11 25l-51 51q-10 10-25 10t-25-10l-202-202l-51-51q-10-10-10-25t10-25l51-51l202-202q10-10 25-10t25 10l51 51q10 10 10 25t-10 25l-106 106h281q14 0 25 10t10 25z m143 36q0-117-57-215t-156-156t-215-58t-216 58t-155 156t-58 215t58 215t155 156t216 58t215-58t156-156t57-215z" horiz-adv-x="857.1" />
<glyph glyph-name="right-circled" unicode="&#xe810;" d="m717 350q0 15-10 25l-51 51l-202 202q-10 10-25 10t-25-10l-51-51q-10-10-10-25t10-25l106-106h-280q-15 0-26-10t-10-25v-72q0-14 10-25t26-10h280l-106-106q-10-10-10-25t10-25l51-51q10-10 25-10t25 10l202 202l51 51q10 10 10 25z m140 0q0-117-57-215t-156-156t-215-58t-216 58t-155 156t-58 215t58 215t155 156t216 58t215-58t156-156t57-215z" horiz-adv-x="857.1" />
<glyph glyph-name="up-circled" unicode="&#xe811;" d="m717 351q0 15-11 25l-202 202l-50 50q-10 11-25 11t-26-11l-50-50l-202-202q-10-10-10-25t10-26l50-50q11-10 26-10t25 10l105 105v-280q0-14 11-25t25-11h71q15 0 25 11t11 25v280l105-105q11-11 26-11t25 11l50 50q11 11 11 26z m140-1q0-117-57-215t-156-156t-215-58t-216 58t-155 156t-58 215t58 215t155 156t216 58t215-58t156-156t57-215z" horiz-adv-x="857.1" />
<glyph glyph-name="down-circled" unicode="&#xe812;" d="m717 349q0 16-11 26l-50 50q-10 10-25 10t-26-10l-105-105v280q0 15-11 25t-25 11h-71q-15 0-25-11t-11-25v-280l-105 105q-11 11-25 11t-26-11l-50-50q-10-10-10-26t10-25l202-202l50-50q11-10 26-10t25 10l50 50l202 202q11 10 11 25z m140 1q0-117-57-215t-156-156t-215-58t-216 58t-155 156t-58 215t58 215t155 156t216 58t215-58t156-156t57-215z" horiz-adv-x="857.1" />
<glyph glyph-name="cw" unicode="&#xe813;" d="m857 707v-250q0-14-10-25t-26-11h-250q-23 0-32 23q-10 22 7 38l77 77q-82 77-194 77q-58 0-111-23t-91-61t-62-91t-22-111t22-111t62-91t91-61t111-23q66 0 125 29t100 82q4 6 13 7q8 0 14-5l76-77q5-4 6-11t-5-13q-60-74-147-114t-182-41q-87 0-167 34t-136 92t-92 137t-34 166t34 166t92 137t136 92t167 34q82 0 158-31t137-88l72 72q16 18 39 8q22-9 22-33z" horiz-adv-x="857.1" />
<glyph glyph-name="ccw" unicode="&#xe814;" d="m857 350q0-87-34-166t-91-137t-137-92t-166-34q-96 0-183 41t-147 114q-4 6-4 13t5 11l76 77q6 5 14 5q9-1 13-7q41-53 100-82t126-29q58 0 110 23t92 61t61 91t22 111t-22 111t-61 91t-92 61t-110 23q-55 0-105-20t-90-57l77-77q17-16 8-38q-10-23-33-23h-250q-15 0-25 11t-11 25v250q0 24 22 33q22 10 39-8l72-72q60 57 137 88t159 31q87 0 166-34t137-92t91-137t34-166z" horiz-adv-x="857.1" />
<glyph glyph-name="to-start-alt" unicode="&#xe817;" d="m975 771q10 11 18 8t7-18v-822q0-14-7-18t-18 8l-396 396q-5 5-8 11v-397q0-14-7-18t-18 8l-396 396q-5 5-7 11v-379q0-14-11-25t-25-11h-71q-15 0-25 11t-11 25v786q0 14 11 25t25 11h71q15 0 25-11t11-25v-379q2 7 7 11l396 396q11 11 18 8t7-18v-396q3 6 8 10z" horiz-adv-x="1000" />
<glyph glyph-name="fast-fw" unicode="&#xe816;" d="m25-71q-10-11-18-8t-7 18v822q0 14 7 18t18-8l396-396q5-4 8-11v397q0 14 7 18t18-8l396-396q10-11 10-25t-10-25l-396-396q-11-11-18-8t-7 18v396q-3-5-8-10z" horiz-adv-x="928.6" />
<glyph glyph-name="fast-bw" unicode="&#xe815;" d="m903 771q11 11 18 8t8-18v-822q0-14-8-18t-18 8l-396 396q-4 5-7 11v-397q0-14-7-18t-18 8l-396 396q-11 11-11 25t11 25l396 396q11 11 18 8t7-18v-396q3 6 7 10z" horiz-adv-x="928.6" />
<glyph glyph-name="italic" unicode="&#xe800;" d="m0-78l10 48q2 0 43 11q42 11 64 22q16 21 23 56l15 78l31 149l7 36q5 25 10 47t9 38t7 26t5 17t1 6l17 88l9 35l12 75l4 28v21q-23 13-80 16q-16 1-21 2l10 58l177-8q22-1 41-1q37 0 119 5q19 1 38 2t20 2q-1-11-3-22q-4-16-7-28q-31-11-61-17q-36-9-56-18q-7-17-14-49q-5-24-7-46q-25-111-37-170l-34-174l-21-88l-24-131l-7-25q-1-4 1-15q36-9 66-12q20-3 37-6q-1-16-4-32q-4-17-5-23q-10 0-13-1q-13-1-23-1q-5 0-16 2q-10 2-81 10l-110 1q-23 0-97-6q-42-4-55-6z" horiz-adv-x="571.4" />
<glyph glyph-name="facebook" unicode="&#xe844;" d="m124-150v469h-124v169h124v145c0 113 73 217 242 217c69 0 119-7 119-7l-4-157s-51 0-108 0c-60 0-70-28-70-74v-124h183l-8-169h-175v-469h-179" horiz-adv-x="486" />
<glyph glyph-name="twitter-bird" unicode="&#xe845;" d="m1231 732q-51-77-126-131q1-14 1-32q0-102-30-203q-29-102-90-195q-61-92-145-164q-84-72-201-114q-118-43-253-43q-210 0-387 113q31-3 60-3q176 0 314 108q-82 2-147 51q-64 49-89 125q24-5 48-5q34 0 66 9q-87 17-145 87q-57 69-57 160l0 4q53-30 114-32q-52 34-82 90q-30 55-30 120q0 68 34 127q95-117 230-186q135-70 290-78q-6 28-6 58q0 104 74 178q74 74 178 74q110 0 185-80q85 17 160 62q-29-91-111-140q76 9 145 39z" horiz-adv-x="1231" />
<glyph glyph-name="vimeo" unicode="&#xe846;" d="m1158 619q-8-169-236-463q-236-306-400-306q-101 0-171 187l-94 343q-52 187-112 187q-13 0-90-55l-55 70q86 76 169 151q114 99 171 104q135 13 166-185q34-212 47-264q39-177 86-177q36 0 109 114q73 115 78 174q10 99-78 99q-42 0-86-18q86 278 327 270q180-5 169-231z" horiz-adv-x="1158.8" />
<glyph glyph-name="tumblr" unicode="&#xe847;" d="m346 850v-253h237v-157h-237v-256c0-58 3-95 9-112c6-16 17-29 34-39c22-13 48-20 76-20c51 0 101 16 151 49v-157c-43-21-81-35-116-43c-35-8-72-12-112-12c-46 0-86 6-122 17c-35 12-65 28-89 50c-25 21-42 44-52 68c-10 24-14 59-14 105v350h-111v142c39 13 73 31 101 55c28 24 50 52 67 86c17 33 29 75 35 127h143" horiz-adv-x="616.1" />
<glyph glyph-name="googleplus-rect" unicode="&#xe848;" d="m92 850c-51 0-92-26-92-92l0-79c4 3 8 7 12 11c83 68 173 80 250 81l307 0l-82-66l-89 0c36-31 89-86 89-184c0-108-57-159-118-207c-19-19-41-40-41-72c0-32 22-49 38-63l52-40c64-54 148-117 148-217c0-27-3-52-12-72l354 0c51 0 92 28 92 79l0 580l-184 0l0-185l-79 0l0 185l-184 0l0 78l184 0l0 184l79 0l0-184l184 0l0 171c0 66-41 92-92 92l-816 0z m908-263l0-78l1 0l0 78l-1 0z m-813 135c-38 0-78-19-102-48c-24-31-28-70-28-108c0-98 51-242 176-242c36 0 74 9 98 36c27 31 37 72 37 93c0 106-60 269-181 269z m-187-398l0-259c66 53 180 44 235 47c-20 27-43 54-43 99c0 25 7 40 14 57c-16-1-32-3-46-3c-66 0-120 26-160 59z m251-252c-13 0-91-3-152-24c-21-8-69-26-99-66l0-53c0-51 41-79 92-79l377 0c2 7 6 12 6 26c-1 75-80 115-190 194c-12 2-19 2-34 2z" horiz-adv-x="1001" />
<glyph glyph-name="github-text" unicode="&#xe849;" d="m527 850c-21 0-39-8-54-24c-15-16-22-35-22-58c0-22 7-41 22-57c15-16 33-24 54-24c20 0 38 8 53 24c15 16 22 35 22 57c0 23-7 42-22 58c-15 16-33 24-53 24z m164-156c2-13 3-29 3-49l0-43l-53 0l0-106c15 2 27 3 37 3l16-1l0-2l-1 0l0-196c0-61 8-106 23-134c20-38 57-57 110-57c38 0 71 7 98 22l0 109c-18-12-39-19-61-19c-33 0-49 25-49 74l0 203l47 0c9 0 19 0 28-1c10-1 17-1 21-1l0 106l-96 0l0 45c0 17 2 33 4 47l-127 0l0 0z m-501-87c-49 0-92-16-128-49c-37-35-55-79-55-131c0-35 10-68 30-98c18-29 39-47 63-55l0-2c-24-10-35-36-35-77c0-31 12-54 37-70l0-2c-68-23-102-64-102-126c0-53 23-92 68-117c36-19 81-29 136-29c135 0 203 56 203 169c0 71-52 114-157 130c-24 4-42 13-54 27c-10 9-14 19-14 28c0 27 14 43 43 47c45 7 81 27 109 62c28 34 42 75 42 122c0 14-3 30-9 47c19 4 34 8 44 12l0 112c-46-17-86-26-121-26c-31 18-64 26-100 26l0 0z m275-5c1-13 2-37 2-71l0-340c0-35-1-60-2-74l123 0c-1 16-2 43-2 80l0 336c0 32 1 55 2 69l-123 0z m-270-95c22 0 39-9 51-25c10-16 15-34 15-55c0-51-22-77-66-77c-46 0-69 26-69 76c0 54 23 81 69 81z m7-445c62 0 92-19 92-56c0-39-28-59-84-59c-64 0-96 19-96 57c0 39 29 58 88 58l0 0z" horiz-adv-x="924" />
<glyph glyph-name="github" unicode="&#xe84b;" d="m1079 851c-33 1-110-11-239-97c-70 18-145 26-219 26c-83 0-166-10-243-31c-185 126-267 100-267 100c-53-133-20-232-10-256c-63-68-101-154-101-260c0-80 9-151 31-214c2-4 1-3 3-8c5-12 11-25 17-37c2-4 4-8 4-8c62-116 185-191 404-215l331 0c233 23 345 98 397 216l3 7c5 12 9 24 21 66c12 41 17 113 17 193c0 115-43 207-113 276c12 40 28 128-17 240c0 0-6 2-19 2z m-261-421c54 0 100-9 135-46l0 0c43-45 69-100 69-159c0-277-178-285-398-285c-219 0-397 39-397 285c0 58 25 113 68 158c71 76 192 36 329 36c71 0 137 11 194 11z m-408-82c-46 0-83-61-83-137c0-77 37-138 83-138c45 0 82 61 82 138c0 76-37 137-82 137z m443 0c-45 0-82-61-82-137c0-77 37-138 82-138c46 0 83 61 83 138c0 76-37 137-83 137z" horiz-adv-x="1228" />
<glyph glyph-name="skype" unicode="&#xe84a;" d="m958 278c4 23 6 47 6 72c0 256-208 464-464 464c-25 0-49-2-72-6c-43 27-94 42-148 42c-154 0-280-125-280-280c0-54 15-105 42-148c-4-23-6-47-6-72c0-256 208-464 464-464c25 0 49 2 72 6c43-27 94-42 148-42c155 0 280 125 280 280c0 54-15 105-42 148z m-238-139c-19-28-48-50-86-66c-38-16-82-24-134-24c-61 0-113 11-153 33c-29 15-52 36-70 62c-18 27-27 52-27 77c0 15 6 28 17 38c11 11 25 16 42 16c14 0 25-4 35-12c10-9 18-21 24-36c8-19 17-34 26-46c9-12 21-22 38-30c16-8 38-12 65-12c37 0 67 8 90 24c23 16 34 35 34 59c0 19-6 34-18 45c-13 12-29 21-48 27c-20 6-47 13-80 20c-45 10-83 21-113 34c-31 14-55 31-73 54c-18 23-27 52-27 85c0 33 10 61 29 86c19 25 46 45 82 58c35 13 77 20 126 20c38 0 71-4 99-13c29-9 52-21 71-36c18-14 32-30 41-46c8-17 13-33 13-48c0-15-6-28-17-39c-11-12-25-18-41-18c-15 0-27 4-35 11c-7 7-16 18-24 33c-12 22-25 39-41 51c-15 12-40 18-75 18c-32 0-58-7-78-20c-19-13-29-28-29-46c0-11 4-21 10-29c7-8 16-15 27-21c12-6 24-10 36-14c12-3 32-8 60-15c36-7 67-16 96-25c29-9 53-21 73-34c20-13 36-30 48-51c11-20 17-45 17-74c0-36-10-68-30-96z" horiz-adv-x="1000" />
<glyph glyph-name="vkontakte-rect" unicode="&#xe84c;" d="m196 850c-108 0-196-88-196-196l0-608c0-108 88-196 196-196l608 0c108 0 196 88 196 196l0 608c0 108-88 196-196 196l-608 0z m112-226l197 0c41 0 73-1 94-4c21-4 41-10 59-20c20-11 35-25 45-43c10-18 15-39 15-63c0-27-7-51-21-72c-13-22-32-37-56-47l0-3c34-8 62-22 83-45c21-22 31-52 31-90c0-28-5-52-16-73c-10-21-24-39-42-53c-21-16-44-28-70-35c-25-7-56-10-95-10l-224 0l0 558z m140-102l0-118l17 0c24 0 41 0 51 0c9 1 19 3 30 8c11 5 19 13 23 22c4 9 6 20 6 32c0 9-2 19-7 28c-4 10-11 16-21 21c-10 4-20 6-33 6c-13 1-32 1-57 1l-9 0z m0-214l0-140l7 0c37 0 62 0 76 1c14 0 28 4 43 10c13 6 22 14 28 24c6 11 8 23 8 36c0 18-3 31-10 41c-7 10-18 17-32 22c-8 3-20 5-35 6c-14 0-34 0-59 0l-26 0z" horiz-adv-x="1000" />
<glyph glyph-name="odnoklassniki" unicode="&#xe84d;" d="m290 850c-143 0-258-116-258-258c0-142 115-258 258-258c142 0 258 116 258 258c0 142-116 258-258 258z m0-151c59 0 107-48 107-107c0-59-48-107-107-107c-59 0-107 48-107 107c0 59 48 107 107 107z m-213-374c-26 0-51-12-65-35c-23-36-12-82 23-105c47-29 98-50 150-62l-144-144c-30-30-30-77 0-107c15-15 34-22 53-22c20 0 39 7 54 22l142 142l141-142c30-29 78-29 107 0c30 30 30 78 0 107l-144 144c53 12 103 33 150 62c35 23 46 69 24 105c-23 35-69 46-105 23c-105-66-241-66-347 0c-12 8-26 12-39 12z" horiz-adv-x="579" />
<glyph glyph-name="friendfeed" unicode="&#xe84e;" d="m717 850c-47 0-98-8-150-36c-58 21-120 39-206 32c-193-18-267-116-279-255c-40-5-79-16-82-123c-3-123 36-143 77-156l2-358c6-43-2-90 94-100l144-3c53-7 90 27 109 103c7-62 34-96 85-97l167 0c38 10 80 13 86 82l3 373l44-3c36 5 71 11 96 70l0 112c-7 46-19 40-32 50c34 8 70 11 82 94l-3 91c2 57-30 89-110 111c-36 5-80 13-127 13z m-333-87c23 0 54-4 121-25l2-108c-35 12-65 26-89 23c-76 3-83-35-87-75l0-77l193-2c4 102-23 232 146 254c73 10 141 1 192-21l-2-115c-27 22-62 29-100 34c-104 14-80-79-85-148l139 0l0-102l-139 0l2-460l-153 4l0 456l-200-4l0-452l-153 0l4 452l-75 0l-2 115l81-5l-2 32c3 74-3 202 156 222c20-1 33 1 51 2z" horiz-adv-x="957" />
<glyph glyph-name="blogger" unicode="&#xe84f;" d="m550 850l-300-1c-128-18-237-97-246-231c-3-13-2-25-2-37c-2-59-1-122-1-182c1-96-2-173 0-244c1-209 124-306 348-302c55 1 119 1 192-1c72 0 128-5 177 2c221 31 264 179 273 299l0 137c-6 140-108 178-194 181c9 35 12 82 3 146c-10 124-98 221-250 233z m-251-187l245 0c135-18 129-164 0-185l-245 0c-135 18-129 164 0 185z m-56-404l450-2c136-17 136-183 5-203l-450 2c-139 17-137 182-5 203z" horiz-adv-x="991" />
<glyph glyph-name="deviantart" unicode="&#xe850;" d="m360 557l5-340l-206 0c23 98 69 177 203 197l-2 44c-293-38-356-199-360-315l473 1l0 283c143 4 320-2 369-208l-210 2l0 144c-38 11-70 11-106 9l-2-230l469 0c5 230-199 334-520 329l0 84l-113 0z" horiz-adv-x="993" />
<glyph glyph-name="jabber" unicode="&#xe851;" d="m225 850c-4 0-9 0-13-1l0 0c-18-2-37-2-55-5c-35-5-68-16-101-29c-12-5-24-10-35-16c-4-2-11-3-14-7c-2-1-2-5-2-8c-1-6-2-13-2-19c-3-26-4-52-1-77c1-8 4-23 14-24c15-3 27 16 35 27c17 24 37 47 66 58c34 13 73 16 109 18c102 7 212-11 287-86c10-11 20-22 29-34c33-48 51-103 59-161c4-27 7-54 1-81c-11-47-39-88-71-123c-23-23-47-45-73-64c-15-11-31-20-45-32c-15-14-28-31-38-49c-27-50-34-109-26-164c2-11 3-22 6-33c0-4 1-9 3-12c4-5 15-8 21-8c6-1 10 4 12 10c3 10 1 21 0 31c-4 20-7 40-6 61c2 38 17 74 43 101c27 28 63 44 94 68c61 47 116 111 137 187c8 27 10 56 7 84c-5 35-18 71-30 104c-37 102-101 198-202 245c-40 18-82 26-126 32c-20 3-40 5-61 6c-7 0-15 1-22 1z m-53-421c-10-1-20-3-28-8c-13-8-20-22-24-36c-8-28-5-59 1-87c2-9 3-18 6-27c1-3 1-8 3-10c4-5 13-6 18-5c16 2 12 29 12 40c-2 27-9 52-2 79c3 11 9 23 21 28c10 4 20-1 24-11c7-16 5-34 9-51c1-6 3-11 6-17c0-1 1-4 3-4c6 0 13 9 17 12c13 11 26 22 40 30c7 3 18 9 25 3c2-2 4-4 5-5c8-13 0-23-5-36c-7-16-14-31-24-45c-9-13-21-23-28-37c-4-8-7-18-5-27c2-8 8-13 16-11c6 1 10 7 13 11c6 9 12 17 18 26c11 16 25 32 35 49c12 21 18 45 18 69c0 20-8 50-31 55c-4 0-9 0-13-1c-5-1-11-3-16-5c-13-6-24-16-34-26c-6-7-11-15-18-21c0 15-3 30-12 43c-11 16-30 25-50 25z m-115-237c-1 0-2 0-3 0c-20-3-26-19-22-37c4-22 22-40 40-54c46-35 105-54 162-51c22 1 47 5 67 14c11 5 23 23 8 31c-2 1-5 2-7 2c-7 1-14-1-20-3c-11-3-22-6-33-8c-34-6-71 2-98 22c-23 16-41 37-58 59c-10 12-19 26-36 25z m-21-111c-3 0-6 0-8-1c-5 0-11 0-15-3c-9-7 1-20 5-26c14-18 32-32 50-45c50-35 107-56 168-60c18-1 35 0 53 3c6 1 14 2 20 4c17 8 12 39-3 46c-7 4-17-1-24-1c-16-3-32-3-48-3c-42 2-87 15-124 35c-15 8-28 18-40 29c-8 7-16 18-26 21c-2 1-5 1-8 1z m3-95c0 0-1 0-1 0c-7-1-13-4-17-10c-4-3-7-7-8-11c-11-26 17-50 36-62c21-13 43-23 67-31c53-19 115-31 169-14c17 5 33 14 44 26c7 7 12 18 0 22c-8 3-17-4-23-6c-16-7-32-11-48-13c-22-3-42 2-63 7c-18 5-37 9-54 16c-15 5-30 12-43 21c-4 3-8 5-11 9c-11 11-19 25-30 36c-4 5-11 10-18 10z" horiz-adv-x="667" />
<glyph glyph-name="lastfm" unicode="&#xe852;" d="m439 134l-37 99s-59-66-148-66c-78 0-134 69-134 178c0 140 70 190 140 190c100 0 132-65 159-148l37-114c36-110 105-199 302-199c141 0 237 43 237 157c0 92-52 140-150 163l-73 16c-51 11-65 32-65 66c0 39 30 62 81 62c54 0 84-21 88-70l114 14c-9 102-79 144-196 144c-102 0-202-38-202-163c0-77 37-126 132-149l77-18c58-14 78-38 78-71c0-42-41-59-119-59c-115 0-163 60-190 144l-38 114c-48 148-124 202-276 202c-167 0-256-106-256-286c0-173 89-266 249-266c128 0 190 60 190 60z" horiz-adv-x="995" />
<glyph glyph-name="linkedin" unicode="&#xe853;" d="m238-150l0 675l-225 0l0-675l225 0z m-113 767c79 0 127 52 127 116c-1 67-48 117-125 117c-77 0-127-50-127-117c0-64 49-116 124-116l1 0z m237-767l224 0l0 377c0 20 1 40 7 55c17 40 53 82 115 82c82 0 114-62 114-153l0-361l224 0l0 387c0 207-110 304-258 304c-121 0-174-68-204-114l2 0l0 98l-224 0c3-64 0-675 0-675z" horiz-adv-x="1046" />
<glyph glyph-name="picasa" unicode="&#xe854;" d="m474 850c-55 0-106-11-157-22l377-343l-5 301c-83 49-152 64-215 64z m-235-56c-262-184-242-367-236-551l416 382l-180 169z m520-55l3-558l142 5c66 262-18 422-145 553z m-569-413l-169-163c66-151 119-195 172-237l-3 400z m88-205l-2-244c362-90 500 58 602 242l-600 2z" horiz-adv-x="927.2" />
<glyph glyph-name="wordpress" unicode="&#xe855;" d="m502 850c-196 0-380-116-465-300l238 0l0-26c-73 9-67-30-56-70l156-391l115 269l-53 126c-19 34-20 71-98 68l1 24l349-1l0-27c-41-3-90 10-64-74l141-370l77 216c26 91 2 178-28 264c-17 57-9 105 66 124c-114 117-249 168-379 168z m475-342l-227-590c63 54 127 74 205 224c52 124 47 239 22 366z m-964-10c-22-174-20-225 35-367c71-136 126-165 205-218l-240 585z m498-221l-168-404c118-34 223-30 320 8l-152 396z" horiz-adv-x="995" />
<glyph glyph-name="instagram" unicode="&#xe856;" d="m749 849h-498c-138 0-249-111-249-248v-502c0-137 111-248 249-248h498c138 0 250 111 250 248v502c0 136-112 248-250 248z m157-750c0-86-70-156-157-156h-498c-87 0-157 70-157 156v324h197c-14-30-23-64-23-100c0-130 107-236 237-236c131 0 237 106 237 236c0 36-8 70-23 100h187v-324z m-499 224c0 54 44 98 98 98c54 0 98-44 98-98c0-54-44-98-98-98c-54 0-98 44-98 98z m499 192h-264c-39 28-86 44-137 44c-51 0-98-16-137-44h-274v86c0 86 70 156 157 156h498c87 0 157-70 157-156v-86h0z m-100 186h-85c-15 0-28-12-28-27v-86c0-15 13-27 28-27h85c16 0 28 12 28 27v86c0 15-12 27-28 27z" horiz-adv-x="1000" />
<glyph glyph-name="diigo" unicode="&#xe857;" d="m251 457c112 2 173 61 230 117l0-673l-112 0c-1 27-2 55-2 82l0 189c0 71 1 142 2 212c-16-4-34-13-54-18c-61-16-141-8-187 19c0-33 1-66 1-100l0-352c0-10 0-21-1-32l-113 0l0 675c58-62 122-121 236-119z m176 196c41 0 73 33 73 74s-32 74-73 74c-40 0-72-33-72-74s32-74 72-74z m-354 0c40 0 72 33 72 74s-32 74-72 74c-40 0-73-33-73-74s33-74 73-74z" horiz-adv-x="500" />
<glyph glyph-name="box" unicode="&#xe858;" d="m352 555c-76 0-146-24-204-64l0 285c0 41-33 74-74 74s-74-33-74-74l0-545c-1-10 0-63 3-78c24-171 171-303 349-303c194 0 352 158 352 353c0 194-158 352-352 352z m0-556c-113 0-204 91-204 204s91 203 204 203c112 0 203-91 203-203s-91-204-203-204z" horiz-adv-x="704" />
<glyph glyph-name="angle-double-down" unicode="&#xe802;" d="m600 368q0-7-6-13l-260-260q-5-6-13-6t-12 6l-260 260q-6 6-6 13t6 13l27 28q6 5 13 5t13-5l219-220l220 220q5 5 13 5t12-5l28-28q6-6 6-13z m0 214q0-7-6-13l-260-260q-5-5-13-5t-12 5l-260 260q-6 6-6 13t6 13l27 28q6 5 13 5t13-5l219-220l220 220q5 5 13 5t12-5l28-28q6-6 6-13z" horiz-adv-x="642.9" />
<glyph glyph-name="music" unicode="&#xe818;" d="m10-45q-22 57 5 118q37 76 131 107q39 14 78 14q69 0 119-37l0 537q0 23 15 40t36 22l531 94l12 0q24 0 41-16q22-17 22-47l0-656q0-35-16-66q-37-76-131-108q-39-13-78-13q-60 0-107 28t-65 77q-21 57 6 117q37 77 131 108q39 14 78 14q68 0 119-38l0 379l-519-91l-12 0l0-500q0-36-16-67q-37-76-131-107q-39-14-78-14q-60 0-107 28t-64 77z m57 22q15-41 66-58t107 3t85 62t13 83t-66 57t-106-2t-85-62t-14-83z m337 623l531 94l0 93l-531-93l0-94z m256-529q15-41 66-58t107 3t85 62t13 83t-66 57t-107-3t-84-61t-14-83z" horiz-adv-x="1000" />
<glyph glyph-name="search" unicode="&#xe819;" d="m0-41q0 47 33 80l260 260q-43 82-43 176q0 154 109 265t266 110t266-110t109-266t-109-265t-266-109q-94 0-176 43l-260-260q-33-33-80-33q-45 0-77 32t-32 77z m55 1q0-22 16-39t39-16t40 17l252 252q-45 33-78 78l-252-252q-17-17-17-40z m258 515q0-129 91-221t221-91t221 91t91 221t-91 221t-221 91t-221-91t-91-221z m93 0q0 90 65 154t154 65q16 0 16-16t-16-16q-78 0-133-54t-54-133q0-16-16-16t-16 16z" horiz-adv-x="1000" />
<glyph glyph-name="heart" unicode="&#xe81a;" d="m0 476q0 122 88 210q84 84 204 86t208-78q88 80 208 78t204-86q88-88 88-210t-88-210q-4-4-346-342q-27-27-66-27t-66 27q-2 0-346 342q-88 88-88 210z m63 0q0-97 70-165l346-342q21-23 43 0l345 342q70 68 70 165t-70 165q-66 66-160 68t-164-60l-43-39l-43 39q-70 62-164 60t-160-68q-70-68-70-165z m93 7q0 55 39 94t94 39q16 0 16-16t-16-16q-41 0-71-29t-30-72q0-16-16-16t-16 16z" horiz-adv-x="1000" />
<glyph glyph-name="star" unicode="&#xe81b;" d="m4 457q14 41 57 47l262 39l113 235q19 41 64 41t65-41l113-235l262-39q43-6 56-47t-15-70l-192-191l43-264q8-43-29-68q-18-14-41-14q-18 0-35 8l-227 123l-226-123q-18-8-35-8q-24 0-41 14q-38 25-30 68l43 264l-189 191q-32 29-18 70z m69-21l191-191q25-26 19-61l-44-264l226 123q16 8 35 8t35-8l227-123l-45 264q-6 35 20 61l191 191l-260 37q-39 6-54 41l-114 234l-113-234q-16-35-55-39z" horiz-adv-x="1001" />
<glyph glyph-name="user" unicode="&#xe81c;" d="m4-105q-14 43 25 70q119 78 291 116q-84 105-119 255q-10 55-11 122t23 149t66 138q84 105 223 105t222-105q43-57 67-138t22-149t-11-122q-35-150-119-256q172-37 291-115q39-27 26-71t-61-44l-875 0q-21 0-38 13t-22 32z m60 17l875 0q-109 73-267 108l-79 16q-45-30-91-30t-92 30l-78-16q-160-35-268-108z m193 602q-13-103 16-208t96-186l10-14q56-65 123-65t123 65l9 14q67 82 96 186t16 208q-14 113-76 193t-168 80t-168-80t-77-193z" horiz-adv-x="1003" />
<glyph glyph-name="videocam" unicode="&#xe81d;" d="m0 100l0 500q0 39 27 66t67 28l594 0q39 0 66-28t27-66l0-39l84 84q20 17 45 17l27 0q26 0 44-18t19-44l0-500q0-27-19-45t-44-17l-27 0q-25 0-45 17l-84 84l0-39q0-39-27-66t-66-28l-594 0q-39 0-67 28t-27 66z m63 0q0-14 8-22t23-9l594 0q13 0 22 9t9 22l0 500q0 14-9 22t-22 9l-594 0q-14 0-23-9t-8-22l0-500z m687 156l31-31l125-125l31 0l0 500l-31 0l-156-156l0-188z" horiz-adv-x="1000" />
<glyph glyph-name="camera" unicode="&#xe81e;" d="m0 6l0 469q0 35 23 61t55 31l135 23l43 108q12 27 35 43t53 15l312 0q30 0 53-15t35-43l43-108l135-23q33-6 56-31t22-61l0-469q0-39-27-66t-67-28l-812 0q-39 0-67 28t-27 66z m63 0q0-13 8-22t23-9l812 0q14 0 23 9t8 22l0 469q0 27-25 31l-170 28l-56 140q-8 20-30 20l-312 0q-22 0-30-20l-56-140l-170-28q-25-4-25-31l0-469z m187 282q0 103 73 176t177 74t177-74t73-176t-73-177t-177-73t-177 73t-73 177z m63-15q5-77 65-128t137-45t128 65t45 137t-66 128t-137 45t-128-65t-44-137z m62 15q0 50 36 87t89 38q16 0 16-16t-16-16q-39 0-66-27t-28-66q0-16-15-16t-16 16z" horiz-adv-x="1000" />
<glyph glyph-name="photo" unicode="&#xe81f;" d="m0-25l0 750q0 53 36 89t89 36l687 0q53 0 89-36t36-89l0-750q0-53-36-89t-89-36l-687 0q-53 0-89 36t-36 89z m63 0q0-25 18-44t44-19l687 0q26 0 44 19t19 44l0 750q0 25-19 44t-44 18l-687 0q-25 0-44-18t-18-44l0-750z m62 156l0 563q0 13 9 22t22 9l625 0q14 0 23-9t9-22l0-563q0-13-9-22t-23-9l-625 0q-13 0-22 9t-9 22z m31 0l483 0l-88 100l-18 21l-252 286l-125-145l0-262z m0 311l102 117q10 10 23 10t24-10l246-281l82 94q10 9 23 9t24-9l101-112l0 434l-625 0l0-252z m344 96q0 39 27 66t67 27t66-27t28-66t-28-67t-66-27t-67 27t-27 67z m31 0q0-26 19-44t44-19t44 19t18 44t-18 43t-44 19t-44-19t-19-43z m41-284l108-123l101 0l0 82l-125 137z" horiz-adv-x="937" />
<glyph glyph-name="attach" unicode="&#xe820;" d="m0 99q0 91 64 155l456 451q82 82 199 82t199-82t82-199t-82-199l-344-342q-21-23-44-1t1 44l338 340q65 62 65 153t-65 156t-155 64t-153-64l-454-448q-44-45-44-109t45-110t111-46t109 45l457 451q27 27 27 66t-27 67t-66 27t-67-27l-341-344q-24-22-45 1t0 44l341 343q47 45 112 45t110-45t46-111t-45-111l-457-449q-64-65-155-65t-154 64t-64 154z" horiz-adv-x="1000" />
<glyph glyph-name="lock" unicode="&#xe821;" d="m0 131l0 219q0 39 27 66t67 28l0 125q0 117 82 199t199 82t199-82t82-199l0-125q39 0 67-28t27-66l0-219q0-117-82-199t-199-82l-188 0q-117 0-199 82t-82 199z m63 0q0-90 64-154t154-65l188 0q90 0 154 65t65 154l0 219q0 14-9 22t-23 9l-562 0q-14 0-23-9t-8-22l0-219z m93 313l63 0l0 125q0 64 46 110t110 46t110-46t46-110l0-125l63 0l0 125q0 90-65 154t-154 64t-154-64t-65-154l0-125z m94 0l250 0l0 125q0 52-36 89t-89 36t-89-36t-36-89l0-125z m63-250q0 25 18 44t44 18t44-18t19-44q0-28-22-84q-14-41-41-41t-41 41q-21 56-21 84z" horiz-adv-x="750" />
<glyph glyph-name="eye" unicode="&#xe822;" d="m0 341l0 18q0 1 2 3l0 4q70 130 206 213t290 83t291-83t205-215l1-1l1-1l0-4q2-6 2-8t-2-8l0-4l-1-1l-1-1q-68-132-205-215t-291-83t-290 83t-206 215l0 2q-2 2-2 3z m66 9q65-113 183-182t250-68t250 68t183 182q-65 113-183 182t-250 68t-250-68t-183-182z m213 0q0 90 65 154t154 65t154-65t65-154t-65-154t-154-65t-154 65t-65 154z m32 0q0-78 54-133t133-54t133 54t55 133t-55 133t-133 55t-133-55t-54-133z m62 0q0 53 37 89t88 36q16 0 16-16t-16-15q-37 0-65-28t-29-66q0-16-15-16t-16 16z" horiz-adv-x="998" />
<glyph glyph-name="tag" unicode="&#xe823;" d="m0 100l0 500q0 51 36 88t89 37l594 0q68 0 105-59l156-250q43-66 0-132l-156-250q-37-59-105-59l-594 0q-53 0-89 36t-36 89z m63 0q0-25 18-44t44-18l594 0q35 0 52 29l157 250q21 33 0 66l-157 250q-17 29-52 29l-594 0q-25 0-44-18t-18-44l0-500z m562 250q0 39 27 66t67 28t66-28t27-66t-27-66t-66-28t-67 28t-27 66z m31 0q0-25 19-44t44-18t44 18t18 44t-18 44t-44 19t-44-19t-19-44z" horiz-adv-x="1002" />
<glyph glyph-name="thumbs-up" unicode="&#xe824;" d="m0-56l0 500q0 39 27 66t67 28l94 0q32 0 60-24q12 6 33 16q123 64 125 226q0 39 28 67t66 27q57 0 105-64t49-147q0-66-8-103q237-6 266-14q43-12 66-43t22-63l0-23q-2-39-27-68q17-34 11-75q-7-54-41-86q16-37 0-84q-17-58-52-82q7-27 0-54q-6-18-14-34q-33-60-111-60l-172 0q-92 0-186 21q-92 22-127 30l-2 0q0 2-3 2l-4 0l0 2q-28-55-84-55l-94 0q-39 0-67 27t-27 67z m63 0q0-14 8-23t23-9l94 0q13 0 22 9t9 23l0 500q0 13-9 22t-22 9l-94 0q-14 0-23-9t-8-22l0-500z m31 47q0 19 13 33t34 14t33-14t14-33t-14-34t-33-13t-34 13t-13 34z m31 0q0-16 16-16t15 16t-15 15t-16-15z m125 3q0-23 27-27q22-6 145-35q88-20 172-20l172 0q41 0 56 28q6 15 8 23q6 12-2 28t-29 15l-49 0q-16 0-16 16t16 16l51 0q31 0 49 10t22 20t11 30q21 65-39 65l-63 0q-15 0-15 15t15 16l74 0q57 0 69 66q2 22-9 40t-42 19l-61 0q-15 0-15 15t15 16l63 0q61 0 62 45l0 21q0 38-37 47q-45 12-337 12q19 59 24 84t5 80q0 57-32 103t-60 45q-31 0-31-31q-2-92-46-173t-142-122q-2 0-4-1l-2-1q-25-8-25-33l0-432z" horiz-adv-x="1000" />
<glyph glyph-name="pencil" unicode="&#xe825;" d="m0-41q0 4 1 8t1 8t1 8t1 6l0 2l74 267q10 31 31 53l325 324l0 2l2 2l150 152q60 59 146 59q106 0 186-80q74-74 81-171t-58-161l-476-481q-24-23-55-31l-263-70l-3-1q-3-1-7-2t-9-1t-10-1t-9-1q-45 0-77 32t-32 77z m63 0q0-19 13-33t33-14q6 0 22 4l115 32q4 58-43 105q-45 45-105 43l-32-119q-3-14-3-18z m44 168q67-2 118-52t52-120l116 30l11 6q41 47 34 115t-61 121q-51 49-115 59t-112-24q-7-10-11-21z m131 225q45-2 90-20l295 295q-88 22-144-33z m119-35q38-20 65-45q21-22 41-55l297 299q-16 31-39 55q-30 29-67 45z m122-129q17-41 21-82l0-24l242 245l0 2q61 60 31 156z m101 508q106 0 186-80q70-73 78-166l0-22l52 55q45 45 41 111q-5 74-62 131q-63 62-143 62q-60 0-101-41z" horiz-adv-x="1000" />
<glyph glyph-name="comment" unicode="&#xe826;" d="m0 413q0 156 147 265t353 109t354-109t146-266t-146-265t-354-110q-47 0-96 8q-29-35-89-78t-122-55l-9 0q-12 0-20 8t-8 20q0 6 2 12q0 1 13 21t18 29t13 30t13 36t4 32l0 2q-102 53-160 134t-59 176z m63 0q0-75 48-143t137-111q33-18 33-57l0-6q0-41-21-92q60 37 95 80q18 24 49 24q4 0 8-2q45-6 88-6q182 0 310 92t127 221t-127 220t-310 92t-310-92t-127-220z m93 0q0 89 102 154t242 64q16 0 16-15t-16-16q-125 0-219-57t-93-131q0-15-16-15t-16 15z" horiz-adv-x="1000" />
<glyph glyph-name="location" unicode="&#xe827;" d="m0 475q0 156 109 266t266 109t266-109t109-266q0-78-28-160t-85-166t-101-141t-110-133q-20-25-49-25l-4 0q-29 0-49 25q-66 77-110 133t-101 141t-85 166t-28 160z m63 0q0-72 28-150t85-161t95-128t100-120l2 0q2-2 2-4l4 4q62 73 100 120t94 128t86 161t29 150q0 129-92 221t-221 91t-221-91t-91-221z m125 8q0 78 54 133t133 54t133-54t55-133t-55-133t-133-55t-133 55t-54 133z m31 0q0-65 46-111t110-45t110 45t46 111t-46 110t-110 46t-110-46t-46-110z" horiz-adv-x="750" />
<glyph glyph-name="cup" unicode="&#xe828;" d="m0 538l0 93q0 26 17 43t42 20l39 113q13 43 58 43l563 0q45 0 58-43l39-113q24-2 41-20t18-43l0-93q0-26-19-44t-44-19l-33 0l1-3q1-3 1-5l-62-562q-4-24-22-39t-41-16l-437 0q-24 0-41 16t-22 39l-62 562q0 2 1 5l1 3l-33 0q-26 0-44 19t-19 44z m63 0l749 0l0 93l-749 0l0-93z m62 156l625 0l-31 93l-563 0z m31-219l10-94l543 0l10 94l-563 0z m14-125l35-312l465 0l35 312l-535 0z m39-344l10-93l437 0l10 93l-457 0z" horiz-adv-x="875" />
<glyph glyph-name="trash" unicode="&#xe829;" d="m0 569l0 68q2 37 29 63t65 25l94 0l0 31q0 39 27 67t66 27l313 0q39 0 66-27t28-67l0-31l93 0q37 0 65-25t29-63l0-68q0-26-19-44t-44-19l0-531q0-53-36-89t-88-36l-500 0q-53 0-89 36t-36 89l0 531q-26 0-44 19t-19 44z m63 0l749 0l0 62q0 14-8 23t-23 8l-687 0q-14 0-23-8t-8-23l0-62z m62-594q0-25 19-44t44-19l500 0q25 0 43 19t19 44l0 531l-625 0l0-531z m63 31l0 407q0 13 8 22t23 9l62 0q14 0 23-9t9-22l0-407q0-13-9-22t-23-9l-62 0q-14 0-23 9t-8 22z m31 0l62 0l0 407l-62 0l0-407z m31 719l375 0l0 31q0 14-9 23t-22 8l-313 0q-13 0-22-8t-9-23l0-31z m125-719l0 407q0 13 9 22t22 9l63 0q13 0 22-9t9-22l0-407q0-13-9-22t-22-9l-63 0q-13 0-22 9t-9 22z m31 0l63 0l0 407l-63 0l0-407z m157 0l0 407q0 13 8 22t23 9l62 0q14 0 23-9t9-22l0-407q0-13-9-22t-23-9l-62 0q-14 0-23 9t-8 22z m31 0l62 0l0 407l-62 0l0-407z" horiz-adv-x="875" />
<glyph glyph-name="doc" unicode="&#xe82a;" d="m0-25l0 625q0 39 27 66t67 28l31 0l0 62q0 39 27 67t67 27l687 0q39 0 67-27t27-67l0-781q0-53-36-89t-89-36l-750 0q-53 0-89 36t-36 89z m63 0q0-25 18-44t44-19l750 0q25 0 44 19t18 44l0 781q0 14-8 23t-23 8l-687 0q-14 0-23-8t-8-23l0-750q0-13-9-22t-23-9t-22 9t-9 22l0 625l-31 0q-14 0-23-9t-8-22l0-625z m187 16q0 15 16 15l250 0q15 0 15-15t-15-16l-250 0q-16 0-16 16z m0 93q0 16 16 16l250 0q15 0 15-16t-15-15l-250 0q-16 0-16 15z m0 94q0 16 16 16l250 0q15 0 15-16q0-6-5-11t-10-4l-250 0q-16 0-16 15z m0 94q0 16 16 16l593 0q16 0 16-16t-16-16l-593 0q-16 0-16 16z m0 94q0 15 16 15l593 0q16 0 16-15t-16-16l-593 0q-16 0-16 16z m0 109l0 219q0 13 9 22t22 9l219 0q14 0 22-9t9-22l0-219q0-14-9-22t-22-9l-219 0q-13 0-22 9t-9 22z m63 31l156 0l0 156l-156 0l0-156z m281-515q0 15 15 15l250 0q16 0 16-15t-16-16l-250 0q-15 0-15 16z m0 93q0 16 15 16l250 0q16 0 16-16t-16-15l-250 0q-15 0-15 15z m0 94q0 16 15 16l250 0q16 0 16-16q0-6-5-11t-11-5l-250 0q-15 0-15 16z m0 281q0 16 15 16l250 0q16 0 16-16t-16-15l-250 0q-15 0-15 15z m0 94q0 16 15 16l250 0q16 0 16-16t-16-16l-250 0q-15 0-15 16z m0 94q0 15 15 15l250 0q16 0 16-15t-16-16l-250 0q-15 0-15 16z" horiz-adv-x="1000" />
<glyph glyph-name="note" unicode="&#xe83b;" d="m0-25l0 750q0 39 27 66t67 28l656 0q25 0 45-18l187-187q18-20 18-45l0-594q0-39-27-66t-67-28l-812 0q-39 0-67 28t-27 66z m63 0q0-14 8-23t23-8l812 0q14 0 23 8t8 23l0 563l-124 0q-40 0-67 27t-27 66l0 125l-625 0q-14 0-23-9t-8-22l0-750z m62 78q0 16 16 16l718 0q16 0 16-16t-16-15l-718 0q-16 0-16 15z m0 94q0 16 16 16l718 0q16 0 16-16t-16-16l-718 0q-16 0-16 16z m0 94q0 15 16 15l718 0q16 0 16-15t-16-16l-718 0q-16 0-16 16z m0 93q0 16 16 16l718 0q16 0 16-16t-16-15l-718 0q-16 0-16 15z m0 110l0 187q0 14 9 23t22 8l219 0q14 0 22-8t9-23l0-187q0-14-9-23t-22-8l-219 0q-13 0-22 8t-9 23z m63 31l156 0l0 125l-156 0l0-125z m281-47q0 16 15 16l375 0q16 0 16-16t-16-15l-375 0q-15 0-15 15z m0 94q0 16 15 16l157 0q15 0 15-16t-15-16l-157 0q-15 0-15 16z m0 94q0 15 15 15l157 0q15 0 15-15t-15-16l-157 0q-15 0-15 16z m281 15q0-25 19-44t43-18l125 0l-187 187l0-125z" horiz-adv-x="1000" />
<glyph glyph-name="cog" unicode="&#xe83a;" d="m0 307l0 86q0 21 15 39t36 22l96 19q5 20 15 41l-53 80q-13 20-10 42t18 38l59 59q19 19 45 19q19 0 35-11l80-53q21 10 41 16l20 95q3 22 21 36t39 15l86 0q21 0 39-15t22-36l19-95q20-6 41-16l80 53q16 11 35 11q26 0 45-19l59-59q17-15 19-38t-11-42l-53-80q10-22 16-41l95-20q22-3 36-21t15-39l0-86q0-22-15-39t-36-22l-95-19q-6-20-16-41l53-80q13-20 11-42t-19-38l-59-59q-19-19-45-19q-19 0-35 11l-80 53q-21-10-41-16l-19-95q-4-22-22-36t-39-15l-86 0q-21 0-39 14t-21 37l-20 95q-20 6-41 16l-80-53q-16-11-35-11q-26 0-45 19l-59 59q-15 15-18 38t10 42l53 80q-10 21-15 41l-96 19q-22 4-36 22t-15 39z m63 0l95-19q35-6 47-40q6-17 14-35q15-31-4-60l-55-82l61-61l82 55q15 10 33 10q16 0 27-6q18-8 35-14q34-12 40-47l19-96l86 0l20 96q5 35 39 47q17 6 35 14q11 6 27 6q18 0 33-10l82-55l61 61l-55 82q-19 29-4 60q8 18 14 35q12 34 47 40l95 19l0 86l-95 20q-35 5-47 39q-6 17-14 35q-15 31 4 60l55 82l-61 61l-82-55q-15-10-33-10q-16 0-27 6q-18 8-35 14q-34 12-39 47l-20 95l-86 0l-19-95q-6-35-40-47q-17-6-35-14q-11-6-27-6q-18 0-33 10l-82 55l-61-61l55-82q19-29 4-60q-8-18-14-35q-12-34-47-39l-95-20l0-86z m218 43q0 90 65 154t154 65t154-65t65-154t-65-154t-154-65t-154 65t-65 154z m28 0q0-80 55-136t136-55t136 55t55 136t-55 136t-136 55t-136-55t-55-136z m66 0q0 53 36 89t89 36t89-37t36-89t-36-88t-89-36t-89 36t-36 89z m31 0q0-39 28-66t66-28t66 28t28 66t-28 66t-66 28t-66-28t-28-66z" horiz-adv-x="1000" />
<glyph glyph-name="params" unicode="&#xe839;" d="m0 538q0 76 63 124l0 94q0 39 27 67t66 27t67-27t27-67l0-94q63-48 63-124t-63-125l0-469q0-39-27-67t-67-27t-66 27t-27 67l0 469q-63 48-63 125z m63 0q0-12 3-26l2-6q4-13 12-23q8-12 20-21t25-12q16-6 31-6t32 6q13 4 25 13q12 8 19 20q8 10 12 23l2 6q4 14 4 26t-4 25q-2 4-2 6q-4 13-12 23q-7 12-19 21t-25 12q-16 6-32 6t-31-6q-14-4-25-13q-10-8-20-20q-8-10-12-23l-2-6q-3-14-3-26z m62-594q0-14 9-23t22-9t23 9t9 23l0 441q-16-4-32-4t-31 4l0-441z m0 746q16 4 31 4t32-4l0 66q0 14-9 23t-23 8t-22-8t-9-23l0-66z m219-527q0 76 62 125l0 468q0 39 28 67t66 27t66-27t28-67l0-468q62-49 62-125t-62-125l0-94q0-39-28-67t-66-27t-66 27t-28 67l0 94q-62 48-62 125z m62 0q0-12 4-26l2-6q4-13 12-23q8-12 19-21t26-12q15-6 31-6t31 6q14 4 26 13q11 8 19 20q8 10 12 23q0 2 2 6q4 14 4 26t-4 25l-2 6q-4 13-12 23q-8 12-19 20q-12 10-26 13q-15 6-31 6t-31-6q-14-3-26-13q-9-8-19-20q-8-10-12-23l-2-6q-4-14-4-25z m63-219q0-14 9-23t22-9t22 9t9 23l0 66q-15-4-31-4t-31 4l0-66z m0 371q15 4 31 4t31-4l0 441q0 14-9 23t-22 8t-22-8t-9-23l0-441z m219 223q0 76 62 124l0 94q0 39 27 67t67 27t66-27t27-67l0-94q63-48 63-124t-63-125l0-469q0-39-27-67t-66-27t-67 27t-27 67l0 469q-62 48-62 125z m62 0q0-12 4-26l2-6q4-13 12-23q7-12 19-21t25-12q16-6 32-6t31 6q14 4 25 13q12 8 20 20q8 10 12 23q0 2 2 6q3 14 3 26t-3 25l-2 6q-4 13-12 23q-8 12-20 20q-11 9-25 13q-16 6-31 6t-32-6q-13-4-25-13q-12-8-19-20q-8-10-12-23l-2-6q-4-14-4-26z m62-594q0-14 9-23t23-9t22 9t9 23l0 441q-16-4-31-4t-32 4l0-441z m0 746q16 4 32 4t31-4l0 66q0 14-9 23t-22 8t-23-8t-9-23l0-66z" horiz-adv-x="1000" />
<glyph glyph-name="calendar" unicode="&#xe838;" d="m0-66l0 738q0 35 24 60t60 24l135 0l0 63q0 13 9 22t22 9t22-9t9-22l0-63l188 0l0 63q0 13 9 22t22 9t22-9t9-22l0-63l188 0l0 63q0 13 9 22t22 9t22-9t9-22l0-63l135 0q35 0 60-24t24-60l0-738q0-35-24-60t-60-24l-832 0q-35 0-60 24t-24 60z m63 0q0-10 5-16t16-6l832 0q10 0 16 6t5 16l0 738q0 10-5 16t-16 6l-135 0l0-63q0-13-9-22t-22-9t-22 9t-9 22l0 63l-188 0l0-63q0-13-9-22t-22-9t-22 9t-9 22l0 63l-188 0l0-63q0-13-9-22t-22-9t-22 9t-9 22l0 63l-135 0q-10 0-16-6t-5-16l0-738z m156 135l0 94l125 0l0-94l-125 0z m0 156l0 94l125 0l0-94l-125 0z m0 156l0 94l125 0l0-94l-125 0z m219-312l0 94l125 0l0-94l-125 0z m0 156l0 94l125 0l0-94l-125 0z m0 156l0 94l125 0l0-94l-125 0z m218-312l0 94l125 0l0-94l-125 0z m0 156l0 94l125 0l0-94l-125 0z m0 156l0 94l125 0l0-94l-125 0z" horiz-adv-x="1000" />
<glyph glyph-name="sound" unicode="&#xe837;" d="m0 163q0 39 27 66l98 98l0 429q0 30 16 53t43 33q15 8 35 8q39 0 66-27l688-688q45-45 19-101q-10-28-33-43t-53-16l-429 0l-98-98q-27-27-66-27t-67 27l-219 219q-27 27-27 67z m63 0q0-14 9-22l219-219q8-10 22-10t21 10l98 98l2 0l-264 264l0-2l-98-98q-9-8-9-21z m123 150l277-277q12 2 14 2l377 0l-666 666l0-377q0-2-2-14z m2 433l708-708l10 0q22 0 30 19t-8 33l-688 688q-8 9-21 9q-6 0-12-1q-19-8-19-30l0-10z m343 73q0 13 9 22t23 9q181 0 309-128t128-309q0-14-9-23t-22-9t-23 9t-9 23q0 154-110 264t-264 110q-14 0-23 9t-9 23z m16-110q0 16 16 16q128 0 220-92t92-220q0-16-16-16t-15 16q0 117-82 199t-199 82q-16 0-16 15z" horiz-adv-x="1001" />
<glyph glyph-name="clock" unicode="&#xe836;" d="m0 350q0 121 86 213l43 236q4 22 21 36t41 15l250 0q22 0 39-15t22-36l45-244q57-64 72-144l2 1q2 1 4 1q25 0 44-19t19-44t-19-44t-44-18q-2 0-4 0l-2 1q-17-84-76-148l-45-240q-4-22-20-36t-40-15l-250 0q-24 0-40 15t-21 36l-45 240q-82 90-82 209z m63 0q0-103 73-177t177-73t176 73t74 177t-74 177t-176 73t-177-73t-73-177z m31 0q0 14 9 22t22 9t23-9t8-22t-8-22t-23-9t-22 9t-9 22z m54-132q0 13 9 22t23 8t22-8t9-22t-9-22t-22-10t-23 10t-9 22z m0 265q0 13 9 22t23 9t22-9t9-22t-9-23t-22-8t-23 8t-9 23z m8-402l32-169l250 0l31 169q-74-43-156-43t-157 43z m4 539q74 42 156 42t157-42l-32 167l-250 0z m121-457q0 13 9 22t23 9t22-9t9-22t-9-23t-22-9t-23 9t-9 23z m0 187q0 14 10 22l162 134q8 6 14-1t2-14l-76-94l-59-70q-8-8-21-8t-23 9t-9 22z m0 188q0 13 9 22t23 9t22-9t9-22t-9-23t-22-9t-23 9t-9 23z m133-320q0 13 9 22t21 8t23-8t10-23q0-12-10-21t-23-10t-21 10t-9 22z m55 132q0 14 9 22t22 9t22-9t9-22t-9-22t-22-9t-22 9t-9 22z" horiz-adv-x="687" />
<glyph glyph-name="lightbulb" unicode="&#xe835;" d="m0 506q0 143 101 243t243 101t243-101t101-243q0-55-30-121t-71-141t-56-115q-15-39-31-94t-24-82t-27-53t-42-39t-63-11t-64 11t-41 39t-26 53t-25 82t-32 94q-13 43-55 116t-72 140t-29 121z m63 0q0-64 82-213q37-64 52-99l293 0q16 35 53 99q82 151 82 213q0 117-82 199t-199 82t-199-82t-82-199z m93 0q0 78 55 133t133 55q15 0 15-16t-15-16q-65 0-111-45t-45-111q0-15-16-15t-16 15z m67-375q11-33 19-60l213 27q2 12 10 33l-242 0z m29-90q10-35 18-60l154 19q6 16 12 38q2 5 4 15t3 12z m29-89q12-26 25-33t38-7q29 0 43 10t27 45z" horiz-adv-x="687" />
<glyph glyph-name="tv" unicode="&#xe834;" d="m36 47q-72 303 0 606q10 43 53 47q205 25 410 25t410-25q45-4 55-47q72-303 0-606q-12-43-55-47q-94-11-197-17q6-4 6-8q0-14-65-22t-154-9t-154 9t-65 22q0 4 6 8q-103 6-197 17q-43 4-53 47z m61 16q402-51 806 0q69 287 0 574q-404 51-806 0q-69-287 0-574z m60 84q-66 207 0 412q6 18 24 21q129 26 256 26t255-26q18-4 24-21q33-102 33-205t-33-207q-6-18-24-22q-129-25-255-25t-256 25q-18 4-24 22z m32 10q248-51 498 0q64 197 0 392q-250 53-498 0q-65-195 0-392z m62 209l8 88q4 13 19 15l143 12q16 0 16-16t-16-15l-117-8q-16-2-18-18l-6-58q0-16-15-16t-14 16z m498-219q0 16 16 16l93 0q16 0 16-16t-16-16l-93 0q-16 0-16 16z m31 94q0 15 16 15l94 0q15 0 15-15t-15-16l-94 0q-16 0-16 16z m0 93q0 16 16 16l94 0q15 0 15-16t-15-15l-94 0q-16 0-16 15z m0 188q0 19 14 33t33 14t33-14t14-33t-14-33t-33-14t-33 14t-14 33z m32 0q0-16 15-16t16 16t-16 16t-15-16z" horiz-adv-x="1000" />
<glyph glyph-name="desktop" unicode="&#xe833;" d="m0 100l0 625q0 39 27 66t67 28l812 0q39 0 67-28t27-66l0-625q0-39-27-66t-67-28l-312 0l0-37l195-25q23-6 23-32q0-13-8-22t-23-9l-562 0q-14 0-23 9t-8 22q0 26 23 32l195 25l0 37l-312 0q-39 0-67 28t-27 66z m63 0q0-14 8-22t23-9l812 0q14 0 23 9t8 22l0 625q0 14-8 22t-23 9l-812 0q-14 0-23-9t-8-22l0-625z m62 125l0 437q0 14 9 23t22 9l688 0q13 0 22-9t9-23l0-437q0-14-9-22t-22-9l-688 0q-13 0-22 9t-9 22z m31 0l688 0l0 437l-688 0l0-437z" horiz-adv-x="1000" />
<glyph glyph-name="mobile" unicode="&#xe832;" d="m0-56l0 812q0 39 27 67t67 27l500 0q39 0 66-27t28-67l0-812q0-39-28-67t-66-27l-500 0q-39 0-67 27t-27 67z m63 0q0-14 8-23t23-9l500 0q13 0 22 9t9 23l0 62l-562 0l0-62z m0 94l562 0l0 624l-562 0l0-624z m0 656l562 0l0 62q0 14-9 23t-22 8l-500 0q-14 0-23-8t-8-23l0-62z m218 47q0 15 16 15l94 0q15 0 15-15t-15-16l-94 0q-16 0-16 16z m32-782q0 16 15 16l31 0q16 0 16-16t-16-15l-31 0q-15 0-15 15z" horiz-adv-x="687" />
<glyph glyph-name="cd" unicode="&#xe831;" d="m5 276q-18 127 29 260q51 126 158 209t234 99t258-29q127-51 210-158t100-234t-30-259q-51-126-157-209t-234-100t-260 30q-127 51-209 157t-99 234z m89 236q-68-168 4-335t239-233t335 5t233 239t-5 334t-239 233t-334-4t-233-239z m57-23q57 144 200 205q15 8 21-7t-8-21q-131-56-183-189q-6-14-21-8t-9 20z m59-24q47 121 166 172q14 6 20-9t-8-20q-106-45-151-154q-6-14-19-8t-8 19z m57-21q39 94 132 135l2 1q14 6 20-8t-8-21q-84-35-117-119q-6-16-21-10t-8 22z m58-24q29 73 101 103t143 1t103-101t1-143t-101-103t-143-1t-103 101t-1 143z m58-24q-19-48 2-96t68-66t96 2t66 68t-2 96t-68 66t-96-2t-66-68z m57-23q10 24 35 35t47 1t35-35t1-47t-35-35t-47-1t-35 35t-1 47z m31-35q5-11 16-16t24 0t16 16t0 24t-16 16t-24 0t-16-16t0-24z m106-210q-6 15 8 21q84 35 117 119q6 16 21 10t8-22q-39-95-132-136l-2 0q-14-6-20 8z m24-57q-6 13 9 21q108 45 151 153q6 15 20 9t9-21q-49-119-168-170q-14-6-21 8z m25-58q-6 15 8 21q131 56 183 189q6 14 21 8t9-20q-57-144-200-205l0-2q-15-6-21 9z" horiz-adv-x="998" />
<glyph glyph-name="inbox" unicode="&#xe830;" d="m0 38l0 218q0 8 2 18l125 469q6 19 22 32t39 12l624 0q22 0 39-12t22-32l125-469q2-10 2-18l0-218q0-53-36-89t-89-37l-750 0q-53 0-89 37t-36 89z m63 0q0-26 18-45t44-18l750 0q25 0 44 18t18 45l0 218l-125 469l-624 0l-125-469l0-218z m58 226l108 375q5 23 29 23l484 0q24 0 29-23l108-375q4-16-5-27t-24-12l-143 0l-45-90q-17-35-57-35l-210 0q-40 0-57 35l-45 90l-143 0q-15 0-24 12t-5 27z m45 24l127 0q39 0 57-36l45-89l210 0l45 89q18 36 57 36l127 0l-92 343l-484 0z" horiz-adv-x="1000" />
<glyph glyph-name="globe" unicode="&#xe82f;" d="m0 366q0 201 142 342t342 142t343-142t142-342t-142-343t-343-142t-342 142t-142 343z m63-16q7-166 125-283q52 37 109 60q-43 106-47 223l-187 0z m0 31l187 0q4 104 37 196q-62 25-117 68q-102-113-107-264z m128 287q51-39 108-62q43 101 117 176q-131-22-225-114z m20-623q88-76 205-95q-64 64-105 148q-53-19-100-53z m70 305q4-111 45-213q69 22 143 26l0 187l-188 0z m0 31l188 0l0 157q-78 3-153 29q-31-88-35-186z m47 215q69-23 141-27l0 218l-2 0q-90-76-139-191z m12-486q49-100 127-166l2 0l0 187q-69-4-129-21z m160-166l2 0q78 66 127 166q-61 17-129 21l0-187z m0 219q74-4 143-26q41 102 45 213l-188 0l0-187z m0 218l188 0q-4 98-36 186q-74-26-152-29l0-157z m0 188q72 4 141 27q-49 115-139 191l-2 0l0-218z m53-619q117 19 205 95q-47 34-100 53q-41-84-105-148z m0 832q74-75 117-176q57 23 107 62q-93 92-224 114z m119-655q57-23 109-60q117 117 125 283l-187 0q-4-117-47-223z m10 450q33-92 37-196l187 0q-6 151-107 264q-55-43-117-68z" horiz-adv-x="969" />
<glyph glyph-name="cloud" unicode="&#xe82e;" d="m0 178q0 55 27 102t75 74q-8 21-8 43q0 58 41 99t99 42q20 0 43-8q34 74 102 119t152 45q110 0 189-73t91-181q82-16 135-80t54-151q0-97-68-166t-166-68l-563 0q-84 0-143 60t-60 143z m63 0q0-58 41-99t99-41l563 0q70 0 121 50t50 121q0 63-39 110t-99 58q-35 8-42 15t-9 42q-8 84-70 141t-147 56q-62 0-117-34t-80-93q-10-19-12-24t-8-13t-15-6t-22 6q-21 10-43 8q-33 0-55-22t-23-56q0-10 4-24q14-33 10-44t-37-30q-70-41-70-121z" horiz-adv-x="1000" />
<glyph glyph-name="paper-plane" unicode="&#xe82d;" d="m0 191q-2 18 14 28l937 625q8 6 18 6t18-6q15-10 13-31l-156-938q-4-13-16-21q-7-4-15-4q-6 0-12 2l-303 121l-64-107q-10-16-28-16t-27 16l-115 201l-244 97q-18 8-20 27z m98 11l189-77q2-2 5-3l3-2l527 564z m221-104l87-152l504 787z m183-62q12-2 20-4l265-108l125 748z" horiz-adv-x="1000" />
<glyph glyph-name="fire" unicode="&#xe82c;" d="m0 135q0 76 18 167t33 156t13 170t-33 222l20-14q19-13 51-44t64-69t65-97t48-118q63 94 65 186l31-35q29-36 61-106t31-139l15 20q16 21 33 60t16 75q96-119 135-251t10-249q-14-51-31-84t-56-68t-107-50t-169-17q-137 0-225 85t-88 200z m63 0q0-88 69-155t181-68q74 0 128 11t84 26t49 42t27 44t14 49q39 159-64 344q-61-103-145-172q0 92-10 176t-25 113q-23-58-113-185q0 7-12 50t-44 123t-75 137q8-125-33-310q-31-143-31-225z m50-23q0 146 41 263l16 47l16-41q19-56 66-164q20 30 49 74l47 75l0-53q0-66 23-135q39 20 68 41t43 36t36 40l27 30l6-32q21-119-20-218q-4-10-13-10q-4 0-6 2q-14 6-8 19q27 73 19 168q-58-66-154-113l-15-6l-6 16q-24 66-28 111q-31-45-58-84l-16-21l-12 23q-43 98-64 149q-25-84-25-217q0-16-16-16t-16 16z" horiz-adv-x="688" />
<glyph glyph-name="database" unicode="&#xe82b;" d="m0 53l0 594q0 98 131 150t307 53t306-53t131-150l0-594q0-97-131-150t-306-53t-307 53t-131 150z m63 0q0-59 109-100t266-41t265 41t109 100l0 117q-46-48-150-75t-224-26t-225 26t-150 75l0-117z m0 188q0-59 109-100t266-41t265 41t109 100l0 117q-46-49-150-75t-224-27t-225 27t-150 75l0-117z m0 187q0-58 109-99t266-41t265 41t109 99l0 108q-58-45-160-69t-214-23t-215 23t-160 69l0-108z m0 219q0-59 109-100t266-41t265 41t109 100t-109 99t-265 41t-266-41t-109-99z m625-609q0 13 8 22t23 9t22-9t9-22t-9-23t-22-9t-23 9t-8 23z m0 187q0 14 8 22t23 9t22-9t9-22t-9-22t-22-9t-23 9t-8 22z m0 188q0 13 8 22t23 9t22-9t9-22t-9-23t-22-9t-23 9t-8 23z" horiz-adv-x="875" />
<glyph glyph-name="beaker" unicode="&#xe83c;" d="m2 354q10 49 55 68l424 170q-12 20-12 41q0 33 23 57l43 43q24 23 56 23t56-23l240-240q23-24 23-56t-23-56l-43-45q-24-21-55-21q-23 0-43 12l-168-418q-17-47-68-57q-8-2-18-2l-4 0q-37 0-62 27l-398 393q-36 35-26 84z m62-11q-3-16 8-28l397-393q10-10 21-10l8 0q16 4 24 20l146 371q-58 61-123 85t-146 33t-123 23l-194-78q-15-6-18-23z m186-24q0 25 19 44t44 18t44-18t18-44t-18-44t-44-19t-44 19t-19 44z m31 0q0-14 9-23t23-8t22 8t9 23t-9 22t-22 9t-23-9t-9-22z m43 144q30-6 80-13q59-6 93-13t87-33t98-70l41 102l55-55q11-11 21 0l45 45q12 10 0 22l-242 242q-10 10-22 0l-45-45q-9-12 0-22l55-54z m51-332q0 14 9 23t22 9t23-9t9-23t-9-22t-23-9t-22 9t-9 22z m63 141q0 33 22 56t56 22t55-22t23-56t-23-56t-55-22t-56 22t-22 56z m31 0q0-20 14-33t33-14t33 14t14 33t-14 33t-33 14t-33-14t-14-33z m375 500q0 33 22 56t56 22t56-22t22-56t-22-56t-56-22t-56 22t-22 56z m31-172q0 14 9 22t22 9t23-9t9-22t-9-22t-23-9t-22 9t-9 22z m0 172q0-20 14-33t33-14t33 14t14 33t-14 33t-33 14t-33-14t-14-33z" horiz-adv-x="1000" />
<glyph glyph-name="truck" unicode="&#xe83d;" d="m0 319l0 343q0 40 27 67t67 27l469 0q39 0 66-27t27-67l0-62l125 0q51 0 78-41l125-187q16-24 16-53l0-188q0-39-27-66t-67-27l-35 0q-12-42-45-68t-76-26t-76 26t-45 68l-164 0q-12-42-45-68t-76-26t-76 26t-45 68l-35 0q-40 0-67 27t-27 66l0 94q-39 0-67 27t-27 67z m63 0q0-14 8-23t23-8l469 0q13 0 22 8t9 23l0 343q0 14-9 23t-22 9l-469 0q-14 0-23-9t-8-23l0-343z m93-188q0-13 9-22t23-9l35 0q11 41 45 67t76 27t76-27t45-67l164 0q12 41 45 67t76 27t76-27t45-67l35 0q14 0 23 9t8 22l0 188q0 10-5 17l-125 188q-8 14-26 14l-125 0l0-219q0-39-27-67t-66-27l-407 0l0-94z m125-62q0-26 19-44t44-19t44 19t18 44t-18 44t-44 18t-44-18t-19-44z m407 0q0-26 18-44t44-19t44 19t18 44t-18 44t-44 18t-44-18t-18-44z m0 219l0 187q0 14 8 22t23 9l31 0q18 0 25-13l94-141q6-8 6-18l0-46q0-14-9-23t-22-9l-125 0q-14 0-23 9t-8 23z m31 0l125 0l0 46l-94 141l-31 0l0-187z" horiz-adv-x="1000" />
<glyph glyph-name="money" unicode="&#xe83e;" d="m3 243q31 97 107 173q59 61 203 145q129 74 178 123q55 55 74 121q6 16 16 27q14 12 29 16q35 8 61-16l312-312q26-27 16-63q-31-99-108-173q-58-61-203-145q-129-74-177-123q-55-53-75-121q-6-16-15-27q-14-12-30-16q-35-8-60 16l-313 312q-25 27-15 63z m60-18l99-99l115-115l99-99q25 79 84 140t128 102l138 80t129 101t83 140l-157 157l-155 155q-24-78-83-139t-129-102l-139-80t-128-101t-84-140z m274-199l21 29q22 27 47 53q22 23 55 49q11 9 21 0q12-12 0-24l-2 0q-31-25-52-47q-24-23-43-48l-20-28q-2-2-2-4q-12-12-23 0q-8 10-2 20z m27 359q2 18 10 33q8 18 19 32q0 2-5 5q-4 2-4 7t4 10t8 5t7-4q4-4 8-6q8 8 20 16t28 12t29 1t24-15q8-8 8-18t-8-15q-5-6-15-4q-6 2-18 4q-9 4-20 3t-23-11q20-20 51-57q14 8 31 14q16 6 32 8t31-3t31-17q14-12 20-25q4-14 2-30q0-15-10-33q-8-19-22-37q8-6 16-13q4-2 5-7t-3-9t-9-5t-9 3q-9 8-15 16q-18-18-35-24q-16-6-34-6q-15 2-28 8t-20 15t-8 17t8 16t13 7t13-3t13-8t13-7t17 0t20 12q-21 21-56 62q-32-17-65-19q-29-2-50 15q-14 12-20 26t-4 29z m42 11q-1-7 1-14t8-10q10-10 22-9t33 10q-30 32-49 51q-6-8-10-14t-5-14z m112 143q-9 10 0 22q2 2 4 2q32 25 53 47q23 23 43 49l19 27q2 4 4 4q12 12 22 0q10-10 2-22l-22-29q-21-27-47-53q-21-23-54-48q-12-10-24 1z m4-195q32-35 53-56q6 5 10 13t6 16t0 14t-9 14t-15 9t-15 1t-16-5q-4-2-14-6z" horiz-adv-x="1001" />
<glyph glyph-name="food" unicode="&#xe83f;" d="m0 116q0 33 23 55t55 23l84 0q22 121 117 201t221 80q102 0 186-55t126-144l143 70q12 6 24 2t17-16t2-23t-16-18l-150-76q4-11 6-21l84 0q33 0 56-23t22-55q0-24-16-41l-109-123l0-24q0-33-22-56t-56-22l-594 0q-33 0-55 22t-23 56l0 24l-109 123q-16 17-16 41z m63 0l125-141l0-47q0-16 15-16l594 0q15 0 15 16l0 47l125 141q0 15-15 15l-844 0q-15 0-15-15z m130 78l34 0q21 95 97 157t176 62q84 0 153-46t103-120l27 15q-37 82-113 132t-170 50q-111 0-198-72t-109-178z m55 291q-16 39 16 113q25 61 13 90l-2 0l0 6q0 15 16 15q10 0 14-9q17-42-14-114q-25-62-12-92l0-3q0-16-15-16q-10 0-14 8l0 2l-2 0z m10-291l33 0q20 68 77 112t132 44q66 0 120-36t79-95l30 14q-32 66-93 107t-136 41q-86 0-153-52t-89-135z m66 0l33 0q18 43 57 68t86 26t86-26t57-68l5 0l24 11q-22 51-68 83t-104 31q-61 0-108-35t-68-90z m69 0l37 0q29 31 70 31t68-31l39 0q-37 62-107 62t-107-62z m76 429l0 2q-16 39 13 114q28 60 14 89l0 6q0 16 14 16q12 0 15-10q18-41-13-113q-26-63-14-92q2-2 2-4q0-15-16-15q-9 0-15 7z m160-134l0 2q-16 39 16 111q25 62 11 90l0 6q0 15 16 15q10 0 14-9q17-40-14-114q-26-60-14-90l0-2q2-2 2-3q0-16-15-16q-10 0-14 10l-2 0z m160-295l18 0q0 2-1 4t-1 4z" horiz-adv-x="1000" />
<glyph glyph-name="shop" unicode="&#xe840;" d="m0 413l0 31q0 31 20 56l93 125q4 6 12 14l0 148q0 26 19 44t44 19l624 0q26 0 44-19t19-44l0-148q8-8 12-14l93-125q20-25 20-56l0-32q0-39-27-66t-67-27l0-407q0-25-18-43t-44-19l-688 0q-25 0-44 19t-18 43l0 407q-39 0-67 27t-27 66z m63 0q0-14 8-23t23-9l58 0l125 219l-89 0q-16 0-26-12l-94-125q-5-9-5-19l0-31z m93-501l203 0l0 313q0 14 9 22t23 9l234 0q14 0 22-9t9-22l0-313l188 0l0 407l-688 0l0-407z m32 469l130 0l63 219l-68 0z m0 281l624 0l0 125l-624 0l0-125z m164-281l132 0l0 219l-70 0z m39-468l234 0l0 312l-234 0l0-312z m125 468l132 0l-62 219l-70 0l0-219z m103 219l63-219l130 0l-124 219l-69 0z m104 0l125-219l58 0q14 0 23 9t8 23l0 31q0 10-5 19l-94 125q-10 12-26 12l-89 0z" horiz-adv-x="1000" />
<glyph glyph-name="diamond" unicode="&#xe841;" d="m0 502q0 28 18 45l160 158q17 20 43 20l558 0q26 0 43-20l160-158q18-17 18-43q0-23-16-43l-437-464q-20-22-47-22t-47 22l-437 464q-16 18-16 41z m63 4l134 0l84 84l-72 61z m27-31l307-328l-196 328l-111 0z m146 0l231-383l-76 383l-155 0z m4 31l143 0l-78 65z m2 156l61-50l51 50l-112 0z m84-70l80-66l71 58l-86 71z m96-117l78-389l78 389l-156 0z m8 31l140 0l-70 57z m0 156l70-58l68 58l-138 0z m95-78l69-58l80 66l-65 63z m8-492l231 383l-155 0z m71 55l306 328l-111 0z m13 359l143 0l-65 65z m29 156l51-50l61 50l-112 0z m73-72l84-84l133 0l-145 145z" horiz-adv-x="1000" />
<glyph glyph-name="t-shirt" unicode="&#xe842;" d="m4 580q-14 41 20 69l156 125q17 13 39 13l562 0q22 0 39-13l157-125q33-28 19-69l-62-187q-10-29-39-39q-10-4-20-4q-18 0-31 8l0-383q0-25-19-44t-44-19l-562 0q-26 0-44 19t-19 44l0 383q-13-8-31-8q-10 0-19 4q-30 10-39 39z m59 20l62-187l94 62l0-500l562 0l0 500l94-62l63 187l-157 125l-131 0q-13-41-54-67t-96-27t-96 27t-54 67l-131 0z m320 125q14-27 45-45t72-18t72 18t45 45l-234 0z" horiz-adv-x="1000" />
<glyph glyph-name="win8" unicode="&#xe85b;" d="m986 850l-549-80l0-398l549 0l0 478z m-587-86l-399-58l0-334l399 0l0 392z m-399-430l0-339l399-58l0 397l-399 0z m437 0l0-403l549-81l0 484l-549 0z" horiz-adv-x="986" />
</font>
</defs>
</svg>
